Epic: El reino secreto 3D SBS BDrip 1080 Ac3-DTS es-ES ;DTS en-US Aventuras 2013 PUTLOCKER

Epic: El reino secreto 3D SBS

Version con DTS 768 y Ac3 640 Castellano

Cita:

Título original Epic
Año 2013
Duración 102 min.
País Estados Unidos Estados Unidos
Director Chris Wedge
Guión Daniel Shere, Tom J. Astle, Matt Ember, James V. Hart Libro: William Joyce
Música Danny Elfman
Fotografía Renato Falcão
Reparto Animation
Productora 20th Century Fox Animation / Blue Sky Studios
Género Animación. Aventuras. Fantástico Insectos. 3-D


SINOPSIS: Epic cuenta la historia de las continuas batallas entre las fuerzas del bien, las cuales mantienen al mundo natural con vida, y las fuerzas del mal, las cuales intentan destruirlo. Mary Katherine Amanda Seyfried es una joven adolescente que intenta rescatar la relación con su padre el Profesor Bomba jason Sudeikis , un científico que está obsesionado con descubrir una diminuta sociedad que habita de manera secreta en el bosque, idea que le parece absurda a M.K. hasta que inesperadamente es transportada a este universo secreto, situándola en medio de una batalla entre los Hombres Hoja y los Boggans. FILMAFFINITY

Código:

Format                                  : Matroska
Format version                          : Version 4 / Version 2
File size                                : 11.3 GiB
Duration                                : 1h 42mn
Overall bit rate                        : 15.7 Mbps
Movie name                              : Epic:El mundo secreto 3D SBS Baalberith
Encoded date                            : UTC 2013-09-01 13:44:41
Writing application                      : mkvmerge v6.3.0 'You can't stop me!' built on Jun 28 2013 20:09:41
Writing library                          : libebml v1.3.0 + libmatroska v1.4.0

Video
ID                                      : 1
Format                                  : AVC
Format/Info                              : Advanced Video Codec
Format profile                          : [email protected]
Format settings, CABAC                  : Yes
Format settings, ReFrames                : 2 frames
Codec ID                                : V_MPEG4/ISO/AVC
Duration                                : 1h 42mn
Bit rate                                : 12.5 Mbps
Width                                    : 1 920 pixels
Height                                  : 1 080 pixels
Display aspect ratio                    : 16:9
Frame rate                              : 23.976 fps
Color space                              : YUV
Chroma subsampling                      : 4:2:0
Bit depth                                : 8 bits
Scan type                                : Progressive
Bits/ Pixel*Frame                       : 0.251
Stream size                              : 8.95 GiB 80%
Title                                    : Epic:El mundo secreto 3D SBS Baalberith
Writing library                          : x264 core
Language                                : Spanish
Default                                  : Yes
Forced                                  : No
Color primaries                          : BT.709-5, BT.1361, IEC 61966-2-4, SMPTE RP177
Transfer characteristics                : BT.709-5, BT.1361
Matrix coefficients                      : BT.709-5, BT.1361, IEC 61966-2-4 709, SMPTE RP177

Audio #1
ID                                      : 2
Format                                  : AC-3
Format/Info                              : Audio Coding 3
Mode extension                          : CM complete main
Format settings, Endianness              : Big
Codec ID                                : A_AC3
Duration                                : 1h 42mn
Bit rate mode                            : Constant
Bit rate                                : 640 Kbps
Channel s                               : 6 channels
Channel positions                        : Front: L C R, Side: L R, LFE
Sampling rate                            : 48.0 KHz
Bit depth                                : 16 bits
Compression mode                        : Lossy
Stream size                              : 469 MiB 4%
Title                                    : Ac3 5.1@640 kbps
Language                                : Spanish
Default                                  : Yes
Forced                                  : No

Audio #2
ID                                      : 3
Format                                  : DTS
Format/Info                              : Digital Theater Systems
Codec ID                                : A_DTS
Duration                                : 1h 42mn
Bit rate mode                            : Constant
Bit rate                                : 755 Kbps
Channel s                               : 6 channels
Channel positions                        : Front: L C R, Side: L R, LFE
Sampling rate                            : 48.0 KHz
Bit depth                                : 24 bits
Compression mode                        : Lossy
Stream size                              : 553 MiB 5%
Title                                    : DTS 5.1@768 kbs
Language                                : Spanish
Default                                  : No
Forced                                  : No

Audio #3
ID                                      : 4
Format                                  : DTS
Format/Info                              : Digital Theater Systems
Format profile                          : ES
Codec ID                                : A_DTS
Duration                                : 1h 42mn
Bit rate mode                            : Constant
Bit rate                                : 1 510 Kbps
Channel s                               : 6 channels
Channel positions                        : Front: L C R, Side: L R, LFE
Sampling rate                            : 48.0 KHz
Bit depth                                : 24 bits
Compression mode                        : Lossy
Stream size                              : 1.08 GiB 10%
Title                                    : DTS 5.1@1510 kbps
Language                                : English
Default                                  : No
Forced                                  : No

Text #1
ID                                      : 5
Format                                  : PGS
Muxing mode                              : zlib
Codec ID                                : S_HDMV/PGS
Codec ID/Info                            : The same subtitle format used on BDs/HD-DVDs
Title                                    : Spanish 3D PGS
Language                                : Spanish
Default                                  : No
Forced                                  : No

Text #2
ID                                      : 6
Format                                  : PGS
Muxing mode                              : zlib
Codec ID                                : S_HDMV/PGS
Codec ID/Info                            : The same subtitle format used on BDs/HD-DVDs
Title                                    : English 3D PGS
Language                                : English
Default                                  : No
Forced                                  : No

Text #3
ID                                      : 7
Format                                  : UTF-8
Codec ID                                : S_TEXT/UTF8
Codec ID/Info                            : UTF-8 Plain Text
Title                                    : Spanish Planos
Language                                : Spanish
Default                                  : No
Forced                                  : No

Text #4
ID                                      : 8
Format                                  : UTF-8
Codec ID                                : S_TEXT/UTF8
Codec ID/Info                            : UTF-8 Plain Text
Title                                    : English Planos
Language                                : English
Default                                  : No
Forced                                  : No

Menu
00:00:00.000                            : en:00:00:00.000
00:04:48.205                            : en:00:04:48.205
00:09:49.589                            : en:00:09:49.589
00:13:05.535                            : en:00:13:05.535
00:16:50.051                            : en:00:16:50.051
00:20:36.193                            : en:00:20:36.193
00:24:09.490                            : en:00:24:09.490
00:28:17.237                            : en:00:28:17.237
00:31:31.848                            : en:00:31:31.848
00:34:06.586                            : en:00:34:06.586
00:38:21.591                            : en:00:38:21.591
00:43:17.428                            : en:00:43:17.428
00:44:58.029                            : en:00:44:58.029
00:47:04.739                            : en:00:47:04.739
00:49:07.945                            : en:00:49:07.945
00:52:40.699                            : en:00:52:40.699
00:56:28.885                            : en:00:56:28.885
00:59:52.214                            : en:00:59:52.214
01:03:27.387                            : en:01:03:27.387
01:07:48.940                            : en:01:07:48.940
01:14:36.472                            : en:01:14:36.472
01:18:24.950                            : en:01:18:24.950
01:20:13.100                            : en:01:20:13.100
01:24:03.038                            : en:01:24:03.038
01:25:19.281                            : en:01:25:19.281
01:27:34.040                            : en:01:27:34.040
01:32:05.520                            : en:01:32:05.520
01:34:12.480                            : en:01:34:12.480


Tamaño:11,3Gb
Formato / Contenedor: Matroska
Video Codec: AVC
Profile: [email protected] Marcos:2
Resolución: 1920×1080
Audio 1: Spanish Ac3 640 Kbps 6 channels
Audio 2: Spanish DTS 768 Kbps 6 channels
Audio 3: DTS 1510 Kbps 6 channels
Subtitulos:Spanish,English …en 3D… PGS&Planos

Servidor es : Rapidgator,DDLStorage,Uploaded.net,Bitshare,Putloc ker 98%-2 …INTERCAMBIABLES.
Formato Compresión : Comprimido y partido en 25 partes con winrar
Archivos recuperación : Contiene 3 archivos de recuperación rar Se abren con winrar
Verificación : 1 archivo verificador
Sample:SI Contiene sample de aprx.100-150mb para ver calidad audio/video/subs,sincronizacion etc.
Capitulos:SI contiene capitulos.
Recuperacion:SI, cada archivo consta de un 5% de recuperacion.

Descargar Epic: El reino secreto 3D SBS 1080p

En Putlocker faltan los 2 primeros archivos,los cuales podeis descargar desde el resto de servidores,son intercambiables.

Montaje,sincronizacion-audio-subtitulos: Baalberith

Un saludo.



Deja tu comentario!

Deja un comentario

Tu dirección de correo electrónico no será publicada.

Puedes usar las siguientes etiquetas y atributos HTML: <a href="" title=""> <abbr title=""> <acronym title=""> <b> <blockquote cite=""> <cite> <code> <del datetime=""> <em> <i> <q cite=""> <strike> <strong>